Skip to content

IPTD-559 – My Sweet Teens And Asian Sex Wings – Amami Tsubasa

March 19, 2012
1.83 GB
Video
ID                               : 2
Format                           : VC-1
Format profile                   : AP@L1
Codec ID                         : WVC1
Codec ID/Hint                    : Microsoft
Description of the codec         : Windows Media Video 9 Advanced Profile
Duration                         : 1h 25mn
Bit rate mode                    : Constant
Bit rate                         : 1 404 Kbps
Width                            : 720 pixels
Height                           : 404 pixels
Display aspect ratio             : 16:9
Frame rate                       : 30.000 fps
Chroma subsampling               : 4:2:0
Bit depth                        : 8 bits
Scan type                        : Progressive
Compression mode                 : Lossy
Bits/(Pixel*Frame)               : 0.161
Stream size                      : 860 MiB (94%)
Language                         : Japanese
DISC 2
Video
ID                               : 2
Format                           : VC-1
Format profile                   : AP@L1
Codec ID                         : WVC1
Codec ID/Hint                    : Microsoft
Description of the codec         : Windows Media Video 9 Advanced Profile
Duration                         : 1h 25mn
Bit rate mode                    : Constant
Bit rate                         : 1 404 Kbps
Width                            : 720 pixels
Height                           : 404 pixels
Display aspect ratio             : 16:9
Frame rate                       : 30.000 fps
Chroma subsampling               : 4:2:0
Bit depth                        : 8 bits
Scan type                        : Progressive
Compression mode                 : Lossy
Bits/(Pixel*Frame)               : 0.161
Stream size                      : 860 MiB (93%)
Language                         : Japanese
Leave a Comment

Leave a Reply

Fill in your details below or click an icon to log in:

WordPress.com Logo

You are commenting using your WordPress.com account. Log Out / Change )

Twitter picture

You are commenting using your Twitter account. Log Out / Change )

Facebook photo

You are commenting using your Facebook account. Log Out / Change )

Google+ photo

You are commenting using your Google+ account. Log Out / Change )

Connecting to %s

%d bloggers like this: